Скачать новые центурионы торрент


Скачать фильм Новые центурионы через торрент в хорошем качестве бесплатно 720p by msltel] DUB

ОбщееУникальный идентификатор : 218565275986718407404434134347266742389 (0xA46E24176FAB48519819946079D15875)Полное имя : D:\Video\Новые центурионы.1972.BDRip.720p by msltel.mkvФормат : MatroskaВерсия формата : Version 4 / Version 2Размер файла : 3,97 ГбайтПродолжительность : 1 ч. 43 м.Общий поток : 5514 Кбит/секНазвание фильма : Rip by msltelДата кодирования : UTC 2017-03-29 02:29:32Программа кодирования : mkvmerge v8.2.0 ('World of Adventure') 64bitБиблиотека кодирования : libebml v1.3.1 + libmatroska v1.4.2

ВидеоИдентификатор : 1Формат : AVCФормат/Информация : Advanced Video CodecПрофиль формата : [email protected]Параметр CABAC формата : ДаПараметр ReFrames формата : 9 кадровИдентификатор кодека : V_MPEG4/ISO/AVCПродолжительность : 1 ч. 43 м.Битрейт : 4744 Кбит/секШирина : 1280 пикселейВысота : 546 пикселейСоотношение сторон : 2,35:1Режим частоты кадров : ПостоянныйЧастота кадров : 23,976 (24000/1001) кадра/секЦветовое пространство : YUVСубдискретизация насыщенности : 4:2:0Битовая глубина : 8 битТип развёртки : ПрогрессивнаяБит/(Пиксели*Кадры) : 0.283Размер потока : 3,42 Гбайт (86%)Библиотека кодирования : x264 core 146 r2538 121396cНастройки программы : cabac=1 / ref=9 / deblock=1:-3:-2 / analyse=0x3:0x113 / me=umh / subme=11 / psy=1 / psy_rd=1.00:0.15 / mixed_ref=1 / me_range=32 / chroma_me=1 / trellis=2 / 8x8dct=1 / cqm=0 / deadzone=21,11 / fast_pskip=0 / chroma_qp_offset=-3 / threads=6 / lookahead_threads=1 / sliced_threads=0 / nr=0 / decimate=1 / interlaced=0 / bluray_compat=0 / constrained_intra=0 / bframes=10 / b_pyramid=2 / b_adapt=2 / b_bias=0 / direct=1 / weightb=1 / open_gop=0 / weightp=2 / keyint=230 / keyint_min=23 / scenecut=40 / intra_refresh=0 / rc_lookahead=40 / rc=crf / mbtree=0 / crf=20.3 / qcomp=0.60 / qpmin=0 / qpmax=69 / qpstep=4 / vbv_maxrate=62500 / vbv_bufsize=78125 / crf_max=0.0 / nal_hrd=none / filler=0 / ip_ratio=1.40 / pb_ratio=1.30 / aq=1:1.00Язык : EnglishDefault : ДаForced : Нет

Аудио #1Идентификатор : 2Формат : AC-3Формат/Информация : Audio Coding 3Параметр Endianness формата : BigИдентификатор кодека : A_AC3Продолжительность : 1 ч. 43 м.Вид битрейта : ПостоянныйБитрейт : 192 Кбит/секКаналы : 2 каналаРасположение каналов : Front: L RЧастота : 48,0 КГцЧастота кадров : 31,250 кадров/сек (1536 spf)Битовая глубина : 16 битМетод сжатия : С потерямиРазмер потока : 142 Мбайт (3%)Заголовок : DUB (Мосфильм)Язык : RussianServiceKind/String : Complete MainDefault : ДаForced : Нет

Аудио #2Идентификатор : 3Формат : AC-3Формат/Информация : Audio Coding 3Параметр Endianness формата : BigИдентификатор кодека : A_AC3Продолжительность : 1 ч. 43 м.Вид битрейта : ПостоянныйБитрейт : 192 Кбит/секКаналы : 2 каналаРасположение каналов : Front: L RЧастота : 48,0 КГцЧастота кадров : 31,250 кадров/сек (1536 spf)Битовая глубина : 16 битМетод сжатия : С потерямиРазмер потока : 142 Мбайт (3%)Заголовок : DVO (HTB+)Язык : RussianServiceKind/String : Complete MainDefault : НетForced : Нет

Аудио #3Идентификатор : 4Формат : AC-3Формат/Информация : Audio Coding 3Параметр Endianness формата : BigИдентификатор кодека : A_AC3Продолжительность : 1 ч. 43 м.Вид битрейта : ПостоянныйБитрейт : 192 Кбит/секКаналы : 1 каналРасположение каналов : Front: CЧастота : 48,0 КГцЧастота кадров : 31,250 кадров/сек (1536 spf)Битовая глубина : 16 битМетод сжатия : С потерямиРазмер потока : 142 Мбайт (3%)Заголовок : AVO (Юрий Живов)Язык : RussianServiceKind/String : Complete MainDefault : НетForced : Нет

Аудио #4Идентификатор : 5Формат : AC-3Формат/Информация : Audio Coding 3Параметр Endianness формата : BigИдентификатор кодека : A_AC3Продолжительность : 1 ч. 43 м.Вид битрейта : ПостоянныйБитрейт : 192 Кбит/секКаналы : 1 каналРасположение каналов : Front: CЧастота : 48,0 КГцЧастота кадров : 31,250 кадров/сек (1536 spf)Битовая глубина : 16 битМетод сжатия : С потерямиРазмер потока : 142 Мбайт (3%)Заголовок : originalЯзык : EnglishServiceKind/String : Complete MainDefault : НетForced : Нет

ТекстИдентификатор : 6Формат : UTF-8Идентификатор кодека : S_TEXT/UTF8Идентификатор кодека/Информация : UTF-8 Plain TextПродолжительность : 1 ч. 42 м.Битрейт : 62 бит/секElementCount : 1370Размер потока : 46,6 Кбайт (0%)Заголовок : английскиеЯзык : EnglishDefault : НетForced : Нет

piratbit.ru

Скачать фильм Новые центурионы через торрент в хорошем качестве бесплатно 1080p by msltel] DUB

ОбщееУникальный идентификатор : 227438903795616863154870063353725319254 (0xAB1B23B87DAF7CE88B9028A27A69F856)Полное имя : D:\Video\Новые центурионы.1972.BDRip.1080p by msltel.mkvФормат : MatroskaВерсия формата : Version 4 / Version 2Размер файла : 9,33 ГбайтПродолжительность : 1 ч. 43 м.Общий поток : 12,9 Мбит/секНазвание фильма : Rip by msltelДата кодирования : UTC 2017-03-30 02:27:36Программа кодирования : mkvmerge v8.2.0 ('World of Adventure') 64bitБиблиотека кодирования : libebml v1.3.1 + libmatroska v1.4.2

ВидеоИдентификатор : 1Формат : AVCФормат/Информация : Advanced Video CodecПрофиль формата : [email protected]Параметр CABAC формата : ДаПараметр ReFrames формата : 4 кадраИдентификатор кодека : V_MPEG4/ISO/AVCПродолжительность : 1 ч. 43 м.Битрейт : 11,8 Мбит/секШирина : 1920 пикселейВысота : 818 пикселейСоотношение сторон : 2,35:1Режим частоты кадров : ПостоянныйЧастота кадров : 23,976 (24000/1001) кадра/секЦветовое пространство : YUVСубдискретизация насыщенности : 4:2:0Битовая глубина : 8 битТип развёртки : ПрогрессивнаяБит/(Пиксели*Кадры) : 0.313Размер потока : 8,49 Гбайт (91%)Библиотека кодирования : x264 core 146 r2538 121396cНастройки программы : cabac=1 / ref=4 / deblock=1:-3:-2 / analyse=0x3:0x113 / me=umh / subme=11 / psy=1 / psy_rd=1.00:0.15 / mixed_ref=1 / me_range=32 / chroma_me=1 / trellis=2 / 8x8dct=1 / cqm=0 / deadzone=21,11 / fast_pskip=0 / chroma_qp_offset=-3 / threads=6 / lookahead_threads=1 / sliced_threads=0 / nr=0 / decimate=1 / interlaced=0 / bluray_compat=0 / constrained_intra=0 / bframes=10 / b_pyramid=2 / b_adapt=2 / b_bias=0 / direct=1 / weightb=1 / open_gop=0 / weightp=2 / keyint=230 / keyint_min=23 / scenecut=40 / intra_refresh=0 / rc_lookahead=40 / rc=crf / mbtree=0 / crf=20.2 / qcomp=0.60 / qpmin=0 / qpmax=69 / qpstep=4 / vbv_maxrate=62500 / vbv_bufsize=78125 / crf_max=0.0 / nal_hrd=none / filler=0 / ip_ratio=1.40 / pb_ratio=1.30 / aq=1:1.00Язык : EnglishDefault : ДаForced : Нет

Аудио #1Идентификатор : 2Формат : AC-3Формат/Информация : Audio Coding 3Параметр Endianness формата : BigИдентификатор кодека : A_AC3Продолжительность : 1 ч. 43 м.Вид битрейта : ПостоянныйБитрейт : 192 Кбит/секКаналы : 2 каналаРасположение каналов : Front: L RЧастота : 48,0 КГцЧастота кадров : 31,250 кадров/сек (1536 spf)Битовая глубина : 16 битМетод сжатия : С потерямиРазмер потока : 142 Мбайт (1%)Заголовок : DUB (Мосфильм)Язык : RussianServiceKind/String : Complete MainDefault : ДаForced : Нет

Аудио #2Идентификатор : 3Формат : AC-3Формат/Информация : Audio Coding 3Параметр Endianness формата : BigИдентификатор кодека : A_AC3Продолжительность : 1 ч. 43 м.Вид битрейта : ПостоянныйБитрейт : 192 Кбит/секКаналы : 2 каналаРасположение каналов : Front: L RЧастота : 48,0 КГцЧастота кадров : 31,250 кадров/сек (1536 spf)Битовая глубина : 16 битМетод сжатия : С потерямиРазмер потока : 142 Мбайт (1%)Заголовок : DVO (HTB+)Язык : RussianServiceKind/String : Complete MainDefault : НетForced : Нет

Аудио #3Идентификатор : 4Формат : DTSФормат/Информация : Digital Theater SystemsРежим : 16Параметр Endianness формата : BigИдентификатор кодека : A_DTSПродолжительность : 1 ч. 43 м.Вид битрейта : ПостоянныйБитрейт : 384 Кбит/секКаналы : 1 каналРасположение каналов : Front: CЧастота : 48,0 КГцЧастота кадров : 93,750 кадра/сек (512 spf)Битовая глубина : 24 битМетод сжатия : С потерямиРазмер потока : 283 Мбайт (3%)Заголовок : AVO (Юрий Живов)Язык : RussianDefault : НетForced : Нет

Аудио #4Идентификатор : 5Формат : DTSФормат/Информация : Digital Theater SystemsРежим : 16Параметр Endianness формата : BigИдентификатор кодека : A_DTSПродолжительность : 1 ч. 43 м.Вид битрейта : ПостоянныйБитрейт : 384 Кбит/секКаналы : 1 каналРасположение каналов : Front: CЧастота : 48,0 КГцЧастота кадров : 93,750 кадра/сек (512 spf)Битовая глубина : 24 битМетод сжатия : С потерямиРазмер потока : 283 Мбайт (3%)Заголовок : originalЯзык : EnglishDefault : НетForced : Нет

ТекстИдентификатор : 6Формат : UTF-8Идентификатор кодека : S_TEXT/UTF8Идентификатор кодека/Информация : UTF-8 Plain TextПродолжительность : 1 ч. 42 м.Битрейт : 62 бит/секElementCount : 1370Размер потока : 46,6 Кбайт (0%)Заголовок : английскиеЯзык : EnglishDefault : НетForced : Нет

piratbit.ru

rutor.org :: Новые центурионы / The New Centurions (1972) BDRip 1080p

Новые центурионы / The New Centurions

Страна: США Производство: Chartoff-Winkler Productions, Дубляжная группа киностудии «Мосфильм»Год выпуска: 1972Жанр: боевик, триллер, драма, криминалПродолжительность: 01:43:10

Режиссер: Ричард ФлайшерАвторы сценария: Стёрлинг Силлифант, Роберт Таун, Джозеф Уэмбо

В ролях: Джордж К. Скотт, Стейси Кич, Джейн Александр, Скотт Уилсон, Розалинд Кэш, Эрик Эстрада, Клифтон Джеймс, Ричард Е. Кальк

Описание: Новичок Рой Фехлер приходит в полицию и принимается за работу с рвением, приводящим к развалу собственной семьи. В напарники ему достается опытный и принципиальный коп — настоящий матерый волк. Каждый раз, выезжая на дежурство, они балансируют на грани жизни и смерти, строго придерживаясь в своей деятельности главного лозунга: «Защищать и служить»...

Перевод: Профессиональный (дублированный) | Мосфильм + Профессиональный (двухголосый) | HTB+ + Авторский (одноголосый) | Юрий ЖивовСубтитры: английские

Качество: BDRip 1080pФормат: MKVВидео кодек: AVCАудио кодек: AC3 | DTSВидео: 1920x818 (2.35:1), 23.976 fps, MPEG-4 AVC ~11.8 Мbps avgАудио №1: 48.0 kHz, AC3 Dolby Digital, 2/0 (L,R) ch, ~192 kbps | DUB / МосфильмАудио №2: 48.0 kHz, AC3 Dolby Digital, 2/0 (L,R) ch, ~192 kbps | DVO / HTB+Аудио №3: 48.0 kHz, Digital Theater Systems, 1 ch, ~384 kbps / 24-bit | AVOАудио №4: 48.0 kHz, Digital Theater Systems, 1 ch, ~384 kbps / 24-bit | ENGФормат субтитров: UTF-8 Plain Text

Дата премьеры (мир): 3 августа 1972

Релиз от: msltel

Media Info

General Уникальный идентификатор : 227438903795616863154870063353725319254 (0xAB1B23B87DAF7CE88B9028A27A69F856) Полное имя : Новые центурионы.1972.BDRip.1080p by msltel.mkv Формат : Matroska Версия формата : Version 4 / Version 2 Размер файла : 9,33 Гбайт Продолжительность : 1 ч. 43 м. Общий поток : 12,9 Мбит/сек Название фильма : Rip by msltel Дата кодирования : UTC 2017-03-30 02:27:36 Программа кодирования : mkvmerge v8.2.0 ('World of Adventure') 64bit Библиотека кодирования : libebml v1.3.1 + libmatroska v1.4.2

Видео Идентификатор : 1 Формат : AVC Формат/Информация : Advanced Video Codec Профиль формата : [email protected] Параметр CABAC формата : Да Параметр ReFrames формата : 4 кадра Идентификатор кодека : V_MPEG4/ISO/AVC Продолжительность : 1 ч. 43 м. Битрейт : 11,8 Мбит/сек Ширина : 1920 пикселей Высота : 818 пикселей Соотношение сторон : 2,35:1 Режим частоты кадров : Постоянный Частота кадров : 23,976 (24000/1001) кадра/сек Цветовое пространство : YUV Субдискретизация насыщенности : 4:2:0 Битовая глубина : 8 бит Тип развёртки : Прогрессивная Бит/(Пиксели*Кадры) : 0.313 Размер потока : 8,49 Гбайт (91%) Библиотека кодирования : x264 core 146 r2538 121396c Настройки программы : cabac=1 / ref=4 / deblock=1:-3:-2 / analyse=0x3:0x113 / me=umh / subme=11 / psy=1 / psy_rd=1.00:0.15 / mixed_ref=1 / me_range=32 / chroma_me=1 / trellis=2 / 8x8dct=1 / cqm=0 / deadzone=21,11 / fast_pskip=0 / chroma_qp_offset=-3 / threads=6 / lookahead_threads=1 / sliced_threads=0 / nr=0 / decimate=1 / interlaced=0 / bluray_compat=0 / constrained_intra=0 / bframes=10 / b_pyramid=2 / b_adapt=2 / b_bias=0 / direct=1 / weightb=1 / open_gop=0 / weightp=2 / keyint=230 / keyint_min=23 / scenecut=40 / intra_refresh=0 / rc_lookahead=40 / rc=crf / mbtree=0 / crf=20.2 / qcomp=0.60 / qpmin=0 / qpmax=69 / qpstep=4 / vbv_maxrate=62500 / vbv_bufsize=78125 / crf_max=0.0 / nal_hrd=none / filler=0 / ip_ratio=1.40 / pb_ratio=1.30 / aq=1:1.00 Язык : English Default : Да Forced : Нет

Аудио #1 Идентификатор : 2 Формат : AC-3 Формат/Информация : Audio Coding 3 Параметр Endianness формата : Big Идентификатор кодека : A_AC3 Продолжительность : 1 ч. 43 м. Вид битрейта : Постоянный Битрейт : 192 Кбит/сек Каналы : 2 канала Расположение каналов : Front: L R Частота : 48,0 КГц Частота кадров : 31,250 кадров/сек (1536 spf) Битовая глубина : 16 бит Метод сжатия : С потерями Размер потока : 142 Мбайт (1%) Заголовок : DUB (Мосфильм) Язык : Russian Default : Да Forced : Нет

Аудио #2 Идентификатор : 3 Формат : AC-3 Формат/Информация : Audio Coding 3 Параметр Endianness формата : Big Идентификатор кодека : A_AC3 Продолжительность : 1 ч. 43 м. Вид битрейта : Постоянный Битрейт : 192 Кбит/сек Каналы : 2 канала Расположение каналов : Front: L R Частота : 48,0 КГц Частота кадров : 31,250 кадров/сек (1536 spf) Битовая глубина : 16 бит Метод сжатия : С потерями Размер потока : 142 Мбайт (1%) Заголовок : DVO (HTB+) Язык : Russian Default : Нет Forced : Нет

Аудио #3 Идентификатор : 4 Формат : DTS Формат/Информация : Digital Theater Systems Режим : 16 Параметр Endianness формата : Big Идентификатор кодека : A_DTS Продолжительность : 1 ч. 43 м. Вид битрейта : Постоянный Битрейт : 384 Кбит/сек Каналы : 1 канал Расположение каналов : Front: C Частота : 48,0 КГц Частота кадров : 93,750 кадра/сек (512 spf) Битовая глубина : 24 бит Метод сжатия : С потерями Размер потока : 283 Мбайт (3%) Заголовок : AVO (Юрий Живов) Язык : Russian Default : Нет Forced : Нет

Аудио #4 Идентификатор : 5 Формат : DTS Формат/Информация : Digital Theater Systems Режим : 16 Параметр Endianness формата : Big Идентификатор кодека : A_DTS Продолжительность : 1 ч. 43 м. Вид битрейта : Постоянный Битрейт : 384 Кбит/сек Каналы : 1 канал Расположение каналов : Front: C Частота : 48,0 КГц Частота кадров : 93,750 кадра/сек (512 spf) Битовая глубина : 24 бит Метод сжатия : С потерями Размер потока : 283 Мбайт (3%) Заголовок : original Язык : English Default : Нет Forced : Нет

Текст Идентификатор : 6 Формат : UTF-8 Идентификатор кодека : S_TEXT/UTF8 Идентификатор кодека/Информация : UTF-8 Plain Text Продолжительность : 1 ч. 42 м. Битрейт : 62 бит/сек ElementCount : 1370 Размер потока : 46,6 Кбайт (0%) Заголовок : английские Язык : English Default : Нет Forced : Нет

main-rutor.org

Скачать фильм Центурион через торрент в хорошем качестве бесплатно BDRip

Размер: 1.45 GB | Добавлен: 6 лет 9 мес. назад | Торрент скачан:715 раз
Реклама Дарим 3000 рублей за регистрацию, не упусти свой шанс получить шикарный бонус!!!

22-01-2011 20:05 Центурион Скачать торрент  

Центурион / Centurion Год выпуска: 2010Страна: ВеликобританияЖанр: боевик, триллер, драма, приключения, военный, историяПродолжительность: 97 мин.Перевод: Профессиональный (полное дублирование)Cубтитры: отдельным файломРежиссер: Нил МаршаллПродюссер: Кристиан Колсон, Роберт Джонс, Ивана МаккиннонСценарий: Нил МаршаллБюджет: $12 000 000R-Лицам до 17 лет обязательно присутствие взрослогоМировой рейтинг IMDB 6.40 (15 517) В ролях: Майкл Фассбендер, Ольга Куриленко, Доминик Уэст, Джей Джей Филд, Андреас Висневски, Дэвид Леджено, Аксель Кэролин, Ноэль Кларк, Ли Росс, Дэвид МоррисОписание: Действие разворачивается в 117 году нашей эры. Главный герой — Квинтус Диас — единственный человек, уцелевший после налёта пиктов на пограничную римскую крепость. Вместе с легендарным Девятым легионом он отправляется на север, чтобы стереть с лица земли пиктов и уничтожить их предводителя, Горлакона.Качество видео: BDRipФормат видео: AVIВидео кодек: XviD, build 57 codecАудио кодек: AC3Видео: 720x304 (2.37:1), 23.976 fps, XviD build 50 ~1742 kbps avg, 0.33 bit/pixelАудио: 48 kHz, AC3 Dolby Digital, 3/2 (L,C,R,l,r) + LFE ch, ~384 kbpsРазмер: 1489.46 Mb (1/3 DVD-R)              Скачать Центурион через торрент http://s013.radikal.ru/i323/1101/5a/130eaf65431b.jpg Скачать фильм Центурион через торрент бесплантно в хорошем качестве Описание: Действие разворачивается в 117 году нашей эры. Главный герой — Квинтус Диас — единственный человек, уцелевший после налёта пиктов ... 2011-01-22 20:05 10 10 10

Loading...

Loading...

% Раздел Тема Автор DL S | L
Фильмы [HD 720p, 1080p] (Хороший звук DUB, MVO) [ 9.33 GB ] Новые центурионы / The New Centurions [1972 BDRip 1080p by msltel] DUB DVO AVO msltel Скачать
Фильмы [HD 720p, 1080p] (Хороший звук DUB, MVO) [ 3.97 GB ] Новые центурионы / The New Centurions [1972 BDRip 720p by msltel] DUB DVO AVO msltel Скачать
Фильмы 2010 [ 1.36 GB ] Центурион / Centurion [2010 военный история HDRip] DUB L_E_X Скачать
Фильмы [HD 720p, 1080p] (Хороший звук DUB, MVO) [ 8.25 GB ] Центурион / Centurion [Нил Маршалл/ военный история/BDRip 1080p] .::Sergey::. Скачать
Фильмы [HD 720p, 1080p] (Хороший звук DUB, MVO) [ 2.3 GB ] Центурион / Centurion [2010 военный история ... BDRip ] Venxxx Скачать
Фильмы [HD 720p, 1080p] (Хороший звук DUB, MVO) [ 4.37 GB ] Центурион / Centurion [2010 военный история ... BDRip ] Timberwolf Скачать
Фильмы (DVD фильмы) [ 5.48 GB ] Центурион / Centurion [2010 военный история DVD9 лицензия] nickson-82 Скачать

Последний раз редактировалось: aspace (2011-01-22 20:11), всего редактировалось 2 раз(а)

Рекламный пират

22-01-2011 20:07 Центурион Скачать торрент  

Кинуха не очень...

22-01-2011 20:25 Центурион Скачать торрент  

отличный фильм!!!понравился!!!спасибо

22-01-2011 20:27 Центурион Скачать торрент  

Cnopsan писал(а):

Кинуха не очень...

смотри тогда папины дочки и не трынди

22-01-2011 20:32 Центурион Скачать торрент  

да, фильм отличный! спасибо)

22-01-2011 21:22 Центурион Скачать торрент  

vitaha1982 писал(а):

Cnopsan писал(а):

Кинуха не очень...

смотри тогда папины дочки и не трынди

23-01-2011 06:51 Центурион Скачать торрент  

Капитальный фильм....,благодарю.

20-05-2013 13:52 Центурион Скачать торрент  

Будьте добры, если раздачи нет - закрывайте.

24-10-2015 19:10 Центурион Скачать торрент  

встаньте пожалуйста на раздачу((((

Pекламный агент PB

Дорогой пользователь! Огромная просьба, поблагодарите релизера, оцените раздачу и оставьте свои комментарий, если Вы скачали Центурион через торрент бесплатно! Внесите свою лепту в развитие PiratBit!

Комментировать посты могут только пользователи прошедшие не сложную регистрацию

Центурион через торрент Скачать бесплатно Центурион Центурион скачать торрент Центурион смотреть онлайн Cкачать фильм Центурион бесплатно Центурион скачать торрент в хорошем качестве Центурион смотреть онлайн бесплатно в хорошем качестве

Вы не можете начинать темыВы не можете отвечать на сообщенияВы не можете редактировать свои сообщенияВы не можете удалять свои сообщенияВы не можете голосовать в опросахВы не можете прикреплять файлы к сообщениямВы можете скачивать файлы

piratbit.ru


Смотрите также