Torrent все по новой


Скачать торрент Все по новой / The Do Over (2016) WEBRip 720p

Все по новой / The Do Over

Страна: США Производство: Happy Madison ProductionsГод выпуска: 2016Жанр: комедияПродолжительность: 01:47:39

Режиссер: Стивен БриллАвторы сценария: Кевин Барнетт, Крис Паппас

В ролях: Адам Сэндлер, Пола Пэттон, Кэтрин Хан, Шон Эстин, Дэвид Спейд, Луис Гусман, Джаред Сэндлер, Ник Свардсон

Описание: Два неудачника решают имитировать свою смерть, чтобы начать жизнь с чистого листа. Однако их новая жизнь оказывается далеко не лучше прежней...

Перевод: Любительский (многоголосый, закадровый)Субтитры: нет

Качество: WEBRip 720pФормат: МКVВидео кодек: AVCАудио кодек: АС3Видео: 1280x692 (1.85:1), 23.976 fps, MPEG-4 AVC ~4 393 kbps avgАудио №1: 48.0 kHz, AC3 Dolby Digital, 2 ch, ~384 kbps | RUSАудио №2: 48.0 kHz, AC3 Dolby Digital, 6 ch, ~384 kbps | ENG

Дата премьеры (мир): 27 мая 2016

ПРИМЕЧАНИЕ: ПРИСУТСТВУЕТ РЕКЛАМА!

Media Info

General Unique ID : 186579033814564794179855174942011818500 (0x8C5DD09829DBC52CB76B4A075A9A0204) Format : Matroska Format version : Version 4 / Version 2 Overall bit rate mode : Constant Overall bit rate : 5 266 Kbps Movie name : MoreFilms Encoded date : UTC 2016-05-30 19:37:33 Writing application : mkvmerge v8.8.0 ('Wind at my back') 64bit Writing library : libebml v1.3.3 + libmatroska v1.4.4 DURATION : 00:00:53.952000000 NUMBER_OF_FRAMES : 1686 NUMBER_OF_BYTES : 2589696 _STATISTICS_WRITING_APP : mkvmerge v8.8.0 ('Wind at my back') 64bit _STATISTICS_WRITING_DATE_UTC : 2016-05-30 19:37:33

Video ID : 1 Format : AVC Format/Info : Advanced Video Codec Format profile : [email protected] Format settings, CABAC : Yes Format settings, ReFrames : 5 frames Codec ID : V_MPEG4/ISO/AVC Bit rate mode : Constant Bit rate : 4 393 Kbps Nominal bit rate : 4 700 Kbps Width : 1 280 pixels Height : 692 pixels Display aspect ratio : 1.85:1 Frame rate mode : Constant Frame rate : 23.976 fps Standard : Component Color space : YUV Chroma subsampling : 4:2:0 Bit depth : 8 bits Scan type : Progressive Bits/(Pixel*Frame) : 0.207 Stream size : 28.3 MiB (83%) Default : Yes Forced : No Color range : Limited Color primaries : BT.709 Transfer characteristics : BT.709 Matrix coefficients : BT.709

Audio #1 ID : 2 Format : AC-3 Format/Info : Audio Coding 3 Mode extension : CM (complete main) Format settings, Endianness : Big Codec ID : A_AC3 Bit rate mode : Constant Bit rate : 384 Kbps Channel(s) : 2 channels Channel positions : Front: L R Sampling rate : 48.0 KHz Compression mode : Lossy Stream size : 2.47 MiB (7%) Language : Russian Default : Yes Forced : Yes

Audio #2 ID : 3 Format : AC-3 Format/Info : Audio Coding 3 Mode extension : CM (complete main) Format settings, Endianness : Big Codec ID : A_AC3 Bit rate mode : Constant Bit rate : 384 Kbps Channel(s) : 6 channels Channel positions : Front: L C R, Side: L R, LFE Sampling rate : 48.0 KHz Compression mode : Lossy Stream size : 2.47 MiB (7%) Language : English Default : No Forced : No

mrutor.org

Скачать торрент Все по новой / The Do Over (2016) WEBRip 1080p

Все по новой / The Do Over

Страна: США Производство: Happy Madison ProductionsГод выпуска: 2016Жанр: комедияПродолжительность: 01:47:39

Режиссер: Стивен БриллАвторы сценария: Кевин Барнетт, Крис Паппас

В ролях: Адам Сэндлер, Пола Пэттон, Кэтрин Хан, Шон Эстин, Дэвид Спейд, Луис Гусман, Джаред Сэндлер, Ник Свардсон

Описание: Два неудачника решают имитировать свою смерть, чтобы начать жизнь с чистого листа. Однако их новая жизнь оказывается далеко не лучше прежней...

Перевод: Любительский (многоголосый, закадровый)Субтитры: нет

Качество: WEBRip 1080pФормат: МКVВидео кодек: AVCАудио кодек: АС3Видео: 1920x1036 (1.85:1), 23.976 fps, MPEG-4 AVC ~5 521 kbps avgАудио №1: 48.0 kHz, AC3 Dolby Digital, 2 ch, ~384 kbps | RUSАудио №2: 48.0 kHz, AC3 Dolby Digital, 6 ch, ~384 kbps | ENG

Дата премьеры (мир): 27 мая 2016

ПРИМЕЧАНИЕ: ПРИСУТСТВУЕТ РЕКЛАМА!

Media Info

General Unique ID : 237874474648921843657171886630580916592 (0xB2F4F5166888D2CA879E3A617EEE1170) Format : Matroska Format version : Version 4 / Version 2 Overall bit rate mode : Constant Overall bit rate : 6 416 Kbps Movie name : MoreFilms Encoded date : UTC 2016-05-30 19:37:43 Writing application : mkvmerge v8.8.0 ('Wind at my back') 64bit Writing library : libebml v1.3.3 + libmatroska v1.4.4 DURATION : 00:00:58.304000000 NUMBER_OF_FRAMES : 1822 NUMBER_OF_BYTES : 2798592 _STATISTICS_WRITING_APP : mkvmerge v8.8.0 ('Wind at my back') 64bit _STATISTICS_WRITING_DATE_UTC : 2016-05-30 19:37:43

Video ID : 1 Format : AVC Format/Info : Advanced Video Codec Format profile : [email protected] Format settings, CABAC : Yes Format settings, ReFrames : 4 frames Codec ID : V_MPEG4/ISO/AVC Bit rate mode : Constant Bit rate : 5 521 Kbps Nominal bit rate : 6 000 Kbps Width : 1 920 pixels Height : 1 036 pixels Display aspect ratio : 1.85:1 Frame rate mode : Constant Frame rate : 23.976 fps Standard : Component Color space : YUV Chroma subsampling : 4:2:0 Bit depth : 8 bits Scan type : Progressive Bits/(Pixel*Frame) : 0.116 Stream size : 38.4 MiB (86%) Default : Yes Forced : No Color range : Limited Color primaries : BT.709 Transfer characteristics : BT.709 Matrix coefficients : BT.709

Audio #1 ID : 2 Format : AC-3 Format/Info : Audio Coding 3 Mode extension : CM (complete main) Format settings, Endianness : Big Codec ID : A_AC3 Bit rate mode : Constant Bit rate : 384 Kbps Channel(s) : 2 channels Channel positions : Front: L R Sampling rate : 48.0 KHz Compression mode : Lossy Stream size : 2.67 MiB (6%) Language : Russian Default : Yes Forced : Yes

Audio #2 ID : 3 Format : AC-3 Format/Info : Audio Coding 3 Mode extension : CM (complete main) Format settings, Endianness : Big Codec ID : A_AC3 Bit rate mode : Constant Bit rate : 384 Kbps Channel(s) : 6 channels Channel positions : Front: L C R, Side: L R, LFE Sampling rate : 48.0 KHz Compression mode : Lossy Stream size : 2.67 MiB (6%) Language : English Default : No Forced : No

krutor.org

Скачать торрент Все по новой / The Do Over (2016) WEBRip 720p

Все по новой / The Do Over

Страна: США Производство: Happy Madison ProductionsГод выпуска: 2016Жанр: комедияПродолжительность: 01:47:39

Режиссер: Стивен БриллАвторы сценария: Кевин Барнетт, Крис Паппас

В ролях: Адам Сэндлер, Пола Пэттон, Кэтрин Хан, Шон Эстин, Дэвид Спейд, Луис Гусман, Джаред Сэндлер, Ник Свардсон

Описание: Два неудачника решают имитировать свою смерть, чтобы начать жизнь с чистого листа. Однако их новая жизнь оказывается далеко не лучше прежней...

Перевод: Любительский (многоголосый, закадровый)Субтитры: нет

Качество: WEBRip 720pФормат: МКVВидео кодек: AVCАудио кодек: АС3Видео: 1280x692 (1.85:1), 23.976 fps, MPEG-4 AVC ~4 393 kbps avgАудио №1: 48.0 kHz, AC3 Dolby Digital, 2 ch, ~384 kbps | RUSАудио №2: 48.0 kHz, AC3 Dolby Digital, 6 ch, ~384 kbps | ENG

Дата премьеры (мир): 27 мая 2016

ПРИМЕЧАНИЕ: ПРИСУТСТВУЕТ РЕКЛАМА!

Media Info

General Unique ID : 186579033814564794179855174942011818500 (0x8C5DD09829DBC52CB76B4A075A9A0204) Format : Matroska Format version : Version 4 / Version 2 Overall bit rate mode : Constant Overall bit rate : 5 266 Kbps Movie name : MoreFilms Encoded date : UTC 2016-05-30 19:37:33 Writing application : mkvmerge v8.8.0 ('Wind at my back') 64bit Writing library : libebml v1.3.3 + libmatroska v1.4.4 DURATION : 00:00:53.952000000 NUMBER_OF_FRAMES : 1686 NUMBER_OF_BYTES : 2589696 _STATISTICS_WRITING_APP : mkvmerge v8.8.0 ('Wind at my back') 64bit _STATISTICS_WRITING_DATE_UTC : 2016-05-30 19:37:33

Video ID : 1 Format : AVC Format/Info : Advanced Video Codec Format profile : [email protected] Format settings, CABAC : Yes Format settings, ReFrames : 5 frames Codec ID : V_MPEG4/ISO/AVC Bit rate mode : Constant Bit rate : 4 393 Kbps Nominal bit rate : 4 700 Kbps Width : 1 280 pixels Height : 692 pixels Display aspect ratio : 1.85:1 Frame rate mode : Constant Frame rate : 23.976 fps Standard : Component Color space : YUV Chroma subsampling : 4:2:0 Bit depth : 8 bits Scan type : Progressive Bits/(Pixel*Frame) : 0.207 Stream size : 28.3 MiB (83%) Default : Yes Forced : No Color range : Limited Color primaries : BT.709 Transfer characteristics : BT.709 Matrix coefficients : BT.709

Audio #1 ID : 2 Format : AC-3 Format/Info : Audio Coding 3 Mode extension : CM (complete main) Format settings, Endianness : Big Codec ID : A_AC3 Bit rate mode : Constant Bit rate : 384 Kbps Channel(s) : 2 channels Channel positions : Front: L R Sampling rate : 48.0 KHz Compression mode : Lossy Stream size : 2.47 MiB (7%) Language : Russian Default : Yes Forced : Yes

Audio #2 ID : 3 Format : AC-3 Format/Info : Audio Coding 3 Mode extension : CM (complete main) Format settings, Endianness : Big Codec ID : A_AC3 Bit rate mode : Constant Bit rate : 384 Kbps Channel(s) : 6 channels Channel positions : Front: L C R, Side: L R, LFE Sampling rate : 48.0 KHz Compression mode : Lossy Stream size : 2.47 MiB (7%) Language : English Default : No Forced : No

krutor.org

Скачать торрент Все по новой / The Do Over (2016) WEBRip 720p

Информация о фильмеНазвание: Все по новойОригинальное название: The Do OverГод выхода: 2016Жанр: комедияРежиссер: Стивен БриллВ ролях: Адам Сэндлер, Дэвид Спейд, Луис Гусман, Пола Пэттон, Кэтрин Хан, Шон Эстин, Джаред Сэндлер, Ник Свардсон, Рене Тейлор, Мэтт Уолш

О фильме: Два неудачника решают имитировать свою смерть, чтобы начать жизнь с чистого листа. Однако их новая жизнь оказывается далеко не лучше прежней.

Выпущено: СШАПродолжительность: 01:47:44Озвучивание: Любительское (многоголосое) [Parovoz Production]

Примечание: Релиз без рекламы.

ФайлФормат: MKVКачество: WEBRip 720pВидео: MPEG-4 AVC, 3886 kb/s, 1280x692Аудио: Russian: AC3, 192 kb/s (2 ch) / English: AC3, 640 kb/s (6 ch)Субтитры: English, Italian, German, Portuguese

MI

Format : Matroska Format version : Version 2 File size : 3.62 GiB Duration : 1h 47mn Overall bit rate : 4 813 Kbps Encoded date : UTC 2016-05-31 10:07:37 Writing application : mkvmerge v7.8.0 ('River Man') 32bit built on Apr 3 2015 12:11:22 Writing library : libebml v1.3.1 + libmatroska v1.4.2

Video ID : 1 Format : AVC Format/Info : Advanced Video Codec Format profile : [email protected] Format settings, CABAC : Yes Format settings, ReFrames : 8 frames Codec ID : V_MPEG4/ISO/AVC Duration : 1h 47mn Bit rate : 3 886 Kbps Width : 1 280 pixels Height : 692 pixels Display aspect ratio : 1.85:1 Frame rate mode : Constant Frame rate : 23.976 fps Color space : YUV Chroma subsampling : 4:2:0 Bit depth : 8 bits Scan type : Progressive Bits/(Pixel*Frame) : 0.183 Stream size : 2.92 GiB (81%) Writing library : x264 core 148 r2692 64f4e24 Encoding settings : cabac=1 / ref=8 / deblock=1:-2:-2 / analyse=0x3:0x133 / me=umh / subme=9 / psy=1 / psy_rd=1.00:0.15 / mixed_ref=1 / me_range=16 / chroma_me=1 / trellis=2 / 8x8dct=1 / cqm=0 / deadzone=21,11 / fast_pskip=1 / chroma_qp_offset=-3 / threads=12 / lookahead_threads=1 / sliced_threads=0 / nr=0 / decimate=1 / interlaced=0 / bluray_compat=0 / constrained_intra=0 / bframes=4 / b_pyramid=2 / b_adapt=2 / b_bias=0 / direct=3 / weightb=1 / open_gop=0 / weightp=2 / keyint=240 / keyint_min=23 / scenecut=40 / intra_refresh=0 / rc_lookahead=60 / rc=crf / mbtree=1 / crf=18.0 / qcomp=0.70 / qpmin=0 / qpmax=69 / qpstep=4 / ip_ratio=1.40 / aq=3:0.80 Language : English Default : Yes Forced : No Color range : Limited Color primaries : BT.709 Transfer characteristics : BT.709 Matrix coefficients : BT.709

Audio #1 ID : 2 Format : AC-3 Format/Info : Audio Coding 3 Mode extension : CM (complete main) Format settings, Endianness : Big Codec ID : A_AC3 Duration : 1h 47mn Bit rate mode : Constant Bit rate : 192 Kbps Channel(s) : 2 channels Channel positions : Front: L R Sampling rate : 48.0 KHz Bit depth : 16 bits Compression mode : Lossy Stream size : 148 MiB (4%) Language : Russian Default : Yes Forced : No

Audio #2 ID : 3 Format : AC-3 Format/Info : Audio Coding 3 Mode extension : CM (complete main) Format settings, Endianness : Big Codec ID : A_AC3 Duration : 1h 47mn Bit rate mode : Constant Bit rate : 640 Kbps Channel(s) : 6 channels Channel positions : Front: L C R, Side: L R, LFE Sampling rate : 48.0 KHz Bit depth : 16 bits Compression mode : Lossy Stream size : 493 MiB (13%) Language : English Default : No Forced : No

Text #1 ID : 4 Format : UTF-8 Codec ID : S_TEXT/UTF8 Codec ID/Info : UTF-8 Plain Text Language : English Default : No Forced : No

Text #2 ID : 5 Format : UTF-8 Codec ID : S_TEXT/UTF8 Codec ID/Info : UTF-8 Plain Text Language : Italian Default : No Forced : No

Text #3 ID : 6 Format : UTF-8 Codec ID : S_TEXT/UTF8 Codec ID/Info : UTF-8 Plain Text Language : German Default : No Forced : No

Text #4 ID : 7 Format : UTF-8 Codec ID : S_TEXT/UTF8 Codec ID/Info : UTF-8 Plain Text Language : Portuguese Default : No Forced : No

krutor.org

Скачать торрент Все по новой / The Do Over (2016) WEBRip 1080p от ExKinoRay

Информация о фильмеНазвание: Все по новойОригинальное название: The Do OverГод выхода: 2016Жанр: КомедияРежиссер: Стивен БриллВ ролях: Адам Сэндлер, Пола Пэттон, Кэтрин Хан, Шон Эстин, Дэвид Спейд, Луис Гусман, Джаред Сэндлер, Ник Свардсон, Рене Тейлор, Мэтт Уолш

О фильме: Два неудачника решают имитировать свою смерть, чтобы начать жизнь с чистого листа. Однако их новая жизнь оказывается далеко не лучше прежней.

Страна: СШАСтудия: Happy Madison ProductionsПродолжительность: 01:47:39Перевод: Любительский многоголосый (закадровый) | Parovoz Production

ФайлКодек: MPEG-4Качество: WEBRip \(1080p\)Видео: 1920x1036, 9741 Kbit/s, 23.976 fpsЗвук: Аудио #01: 48 kHz, AC3, 2.0, 192 Kbps | Любительский многоголосый (закадровый), Parovoz Production |AC3 Аудио #02: 48 kHz, AC3, 5.1, 640 kbps | Оригинал |AC3 Субтитры: Английские

Релиз от: Автор релиза:

MI

General Unique ID : 187344213142499617906785119012931010039 (0x8CF12ED91485CFCE8059C649DAB07DF7) Complete name : F:VideoThe.Do.Over.2016.WEBRip.1080p.ExKinoRay.mkv Format : Matroska Format version : Version 4 / Version 2 File size : 7.96 GiB Duration : 1h 47mn Overall bit rate : 10.6 Mbps Movie name : The.Do.Over.2016.WEBRip.1080p.ExKinoRay Encoded date : UTC 2016-05-31 11:45:21 Writing application : mkvmerge v8.3.0 ('Over the Horizon') 64bit Writing library : libebml v1.3.1 + libmatroska v1.4.2

Video ID : 1 Format : AVC Format/Info : Advanced Video Codec Format profile : [email protected] Format settings, CABAC : Yes Format settings, ReFrames : 4 frames Codec ID : V_MPEG4/ISO/AVC Duration : 1h 47mn Bit rate : 9 741 Kbps Width : 1 920 pixels Height : 1 036 pixels Display aspect ratio : 1.85:1 Frame rate mode : Constant Frame rate : 23.976 (24000/1001) fps Color space : YUV Chroma subsampling : 4:2:0 Bit depth : 8 bits Scan type : Progressive Bits/(Pixel*Frame) : 0.204 Stream size : 7.33 GiB (92%) Title : The.Do.Over.2016.WEBRip.1080p.ExKinoRay Writing library : x264 core 148 r2692 64f4e24 Encoding settings : cabac=1 / ref=4 / deblock=1:-3:-3 / analyse=0x3:0x133 / me=umh / subme=10 / psy=1 / psy_rd=1.00:0.15 / mixed_ref=1 / me_range=32 / chroma_me=1 / trellis=2 / 8x8dct=1 / cqm=0 / deadzone=21,11 / fast_pskip=1 / chroma_qp_offset=-3 / threads=12 / lookahead_threads=2 / sliced_threads=0 / nr=0 / decimate=1 / interlaced=0 / bluray_compat=0 / constrained_intra=0 / bframes=8 / b_pyramid=2 / b_adapt=2 / b_bias=0 / direct=3 / weightb=1 / open_gop=0 / weightp=2 / keyint=240 / keyint_min=23 / scenecut=40 / intra_refresh=0 / rc_lookahead=60 / rc=crf / mbtree=1 / crf=17.0 / qcomp=0.70 / qpmin=0 / qpmax=69 / qpstep=4 / ip_ratio=1.40 / aq=3:0.80 Language : English Default : Yes Forced : No Color range : Limited Color primaries : BT.709 Transfer characteristics : BT.709 Matrix coefficients : BT.709

Audio #1 ID : 2 Format : AC-3 Format/Info : Audio Coding 3 Mode extension : CM (complete main) Format settings, Endianness : Big Codec ID : A_AC3 Duration : 1h 47mn Bit rate mode : Constant Bit rate : 192 Kbps Channel(s) : 2 channels Channel positions : Front: L R Sampling rate : 48.0 KHz Frame rate : 31.250 fps (1536 spf) Compression mode : Lossy Stream size : 148 MiB (2%) Title : MVO Language : Russian Default : Yes Forced : No

Audio #2 ID : 3 Format : AC-3 Format/Info : Audio Coding 3 Mode extension : CM (complete main) Format settings, Endianness : Big Codec ID : A_AC3 Duration : 1h 47mn Bit rate mode : Constant Bit rate : 640 Kbps Channel(s) : 6 channels Channel positions : Front: L C R, Side: L R, LFE Sampling rate : 48.0 KHz Frame rate : 31.250 fps (1536 spf) Compression mode : Lossy Stream size : 493 MiB (6%) Language : English Default : No Forced : No

Text ID : 4 Format : UTF-8 Codec ID : S_TEXT/UTF8 Codec ID/Info : UTF-8 Plain Text Duration : 1h 39mn Bit rate : 95 bps Count of elements : 1991 Stream size : 69.8 KiB (0%) Language : English Default : No Forced : No

krutor.org

Скачать торрент Все по новой / The Do Over (2016) WEBRip-AVC

Информация о фильмеНазвание: Все по новойОригинальное название: The Do OverГод выхода: 2016Жанр: комедияРежиссер: Стивен БриллВ ролях: Адам Сэндлер, Дэвид Спейд, Луис Гусман, Пола Пэттон, Кэтрин Хан, Шон Эстин, Джаред Сэндлер, Ник Свардсон, Рене Тейлор, Мэтт Уолш

О фильме: Два неудачника решают имитировать свою смерть, чтобы начать жизнь с чистого листа. Однако их новая жизнь оказывается далеко не лучше прежней.

Выпущено: СШАПродолжительность: 01:47:44 Озвучивание: Любительское (многоголосое) [Parovoz Production]

Примечание: Релиз без рекламы.

ФайлФормат: MKVКачество: WEBRip-AVCВидео: MPEG-4 AVC, ~850 kb/s, 740x400Аудио: AAC, 64 kb/s (2 ch)Субтитры: English, Italian, German, Portuguese

M/I

General Unique ID : 322531884085761040564009945324880344012 (0xF2A561A0AE35EF9A3EA6374F96FB33CC) Complete name : D:Все по новой.(2016).WEBRIP_AVC.[-=DoMiNo=-].mkv Format : Matroska Format version : Version 4 / Version 2 File size : 703 MiB Duration : 1h 47mn Overall bit rate : 912 Kbps Movie name : Все по новой Writing application : XviD4PSP 7.0.273 DAILY Writing library : Lavf57.25.100 / Lavf57.25.100 Cover : Yes Attachments : cover.jpg ACTORS : Адам Сэндлер, Пола Пэттон, Кэтрин Хан, Шон Эстин, Дэвид Спейд, Луис Гусман, Джаред Сэндлер, Ник Свардсон, Рене Тейлор, Мэтт Уолш, показать всех COUNTRY : США DATE : 2016 DIRECTOR : Стивен Брилл ENCODING_INFO : MATROSKA,WEBM > MKV / h364 > X264 VBR-2P 845kbps Произвольный / AC3 > AAC CBR 64kbps HEv2 GENRE : комедияHD_VIDEO : 1 MEDIA_TYPE : 9 ORIGINAL_TITLE : The Do Over PRODUCER : Кевин Грэйди, Адам Сэндлер, Бэрри Бернарди SYNOPSIS : Два неудачника решают имитировать свою смерть, чтобы начать жизнь с чистого листа. Однако их новая жизнь оказывается далеко не лучше прежней. WRITER : Кевин Барнетт, Крис Паппас

Video ID : 1 Format : AVC Format/Info : Advanced Video Codec Format profile : [email protected] Format settings, CABAC : Yes Format settings, ReFrames : 12 frames Codec ID : V_MPEG4/ISO/AVC Duration : 1h 47mn Nominal bit rate : 845 Kbps Width : 740 pixels Height : 400 pixels Display aspect ratio : 1.85:1 Frame rate mode : Constant Frame rate : 23.976 (24000/1001) fps Color space : YUV Chroma subsampling : 4:2:0 Bit depth : 8 bits Scan type : Progressive Bits/(Pixel*Frame) : 0.119 Writing library : x264 core 148 r2694M 3b70645 Encoding settings : cabac=1 / ref=12 / deblock=1:-3:-3 / analyse=0x3:0x133 / me=umh / subme=11 / psy=1 / psy_rd=1.00:0.10 / mixed_ref=1 / me_range=32 / chroma_me=1 / trellis=2 / 8x8dct=1 / cqm=0 / deadzone=21,11 / fast_pskip=0 / chroma_qp_offset=-3 / threads=5 / lookahead_threads=1 / sliced_threads=0 / nr=0 / decimate=1 / interlaced=0 / bluray_compat=0 / constrained_intra=0 / bframes=11 / b_pyramid=2 / b_adapt=2 / b_bias=0 / direct=3 / weightb=1 / open_gop=0 / weightp=2 / keyint=230 / keyint_min=23 / scenecut=40 / intra_refresh=0 / rc=2pass / mbtree=0 / bitrate=845 / ratetol=1.0 / qcomp=0.60 / qpmin=0 / qpmax=69 / qpstep=4 / cplxblur=20.0 / qblur=0.5 / ip_ratio=1.40 / pb_ratio=1.30 / aq=1:1.00 Language : English Default : Yes Forced : No Color range : Limited Color primaries : BT.709 Transfer characteristics : BT.709 Matrix coefficients : BT.709 DURATION : 01:47:44.375000000

Audio ID : 2 Format : AAC Format/Info : Advanced Audio Codec Format profile : HE-AACv2 / HE-AAC / LC Codec ID : A_AAC Duration : 1h 47mn Channel(s) : 2 channels / 1 channel / 1 channel Channel positions : Front: L R / Front: C / Front: C Sampling rate : 48.0 KHz / 48.0 KHz / 24.0 KHz Frame rate : 23.438 fps (1024 spf) Compression mode : Lossy Language : Russian Default : Yes Forced : No DURATION : 01:47:44.283000000

Text #1 ID : 3 Format : UTF-8 Codec ID : S_TEXT/UTF8 Codec ID/Info : UTF-8 Plain Text Language : English Default : Yes Forced : No DURATION : 01:40:04.680000000

Text #2 ID : 4 Format : UTF-8 Codec ID : S_TEXT/UTF8 Codec ID/Info : UTF-8 Plain Text Language : Italian Default : No Forced : No DURATION : 01:40:04.680000000

Text #3 ID : 5 Format : UTF-8 Codec ID : S_TEXT/UTF8 Codec ID/Info : UTF-8 Plain Text Language : German Default : No Forced : No DURATION : 01:40:05.181000000

Text #4 ID : 6 Format : UTF-8 Codec ID : S_TEXT/UTF8 Codec ID/Info : UTF-8 Plain Text Language : Portuguese Default : No Forced : No DURATION : 01:40:15.500000000

krutor.org

Скачать торрент Все по новой / The Do Over (2016) WEBRip 1080p

Все по новой / The Do Over

Страна: США Производство: Happy Madison ProductionsГод выпуска: 2016Жанр: комедияПродолжительность: 01:47:39

Режиссер: Стивен БриллАвторы сценария: Кевин Барнетт, Крис Паппас

В ролях: Адам Сэндлер, Пола Пэттон, Кэтрин Хан, Шон Эстин, Дэвид Спейд, Луис Гусман, Джаред Сэндлер, Ник Свардсон

Описание: Два неудачника решают имитировать свою смерть, чтобы начать жизнь с чистого листа. Однако их новая жизнь оказывается далеко не лучше прежней...

Перевод: Любительский (многоголосый, закадровый)Субтитры: нет

Качество: WEBRip 1080pФормат: МКVВидео кодек: AVCАудио кодек: АС3Видео: 1920x1036 (1.85:1), 23.976 fps, MPEG-4 AVC ~5 521 kbps avgАудио №1: 48.0 kHz, AC3 Dolby Digital, 2 ch, ~384 kbps | RUSАудио №2: 48.0 kHz, AC3 Dolby Digital, 6 ch, ~384 kbps | ENG

Дата премьеры (мир): 27 мая 2016

ПРИМЕЧАНИЕ: ПРИСУТСТВУЕТ РЕКЛАМА!

Media Info

General Unique ID : 237874474648921843657171886630580916592 (0xB2F4F5166888D2CA879E3A617EEE1170) Format : Matroska Format version : Version 4 / Version 2 Overall bit rate mode : Constant Overall bit rate : 6 416 Kbps Movie name : MoreFilms Encoded date : UTC 2016-05-30 19:37:43 Writing application : mkvmerge v8.8.0 ('Wind at my back') 64bit Writing library : libebml v1.3.3 + libmatroska v1.4.4 DURATION : 00:00:58.304000000 NUMBER_OF_FRAMES : 1822 NUMBER_OF_BYTES : 2798592 _STATISTICS_WRITING_APP : mkvmerge v8.8.0 ('Wind at my back') 64bit _STATISTICS_WRITING_DATE_UTC : 2016-05-30 19:37:43

Video ID : 1 Format : AVC Format/Info : Advanced Video Codec Format profile : [email protected] Format settings, CABAC : Yes Format settings, ReFrames : 4 frames Codec ID : V_MPEG4/ISO/AVC Bit rate mode : Constant Bit rate : 5 521 Kbps Nominal bit rate : 6 000 Kbps Width : 1 920 pixels Height : 1 036 pixels Display aspect ratio : 1.85:1 Frame rate mode : Constant Frame rate : 23.976 fps Standard : Component Color space : YUV Chroma subsampling : 4:2:0 Bit depth : 8 bits Scan type : Progressive Bits/(Pixel*Frame) : 0.116 Stream size : 38.4 MiB (86%) Default : Yes Forced : No Color range : Limited Color primaries : BT.709 Transfer characteristics : BT.709 Matrix coefficients : BT.709

Audio #1 ID : 2 Format : AC-3 Format/Info : Audio Coding 3 Mode extension : CM (complete main) Format settings, Endianness : Big Codec ID : A_AC3 Bit rate mode : Constant Bit rate : 384 Kbps Channel(s) : 2 channels Channel positions : Front: L R Sampling rate : 48.0 KHz Compression mode : Lossy Stream size : 2.67 MiB (6%) Language : Russian Default : Yes Forced : Yes

Audio #2 ID : 3 Format : AC-3 Format/Info : Audio Coding 3 Mode extension : CM (complete main) Format settings, Endianness : Big Codec ID : A_AC3 Bit rate mode : Constant Bit rate : 384 Kbps Channel(s) : 6 channels Channel positions : Front: L C R, Side: L R, LFE Sampling rate : 48.0 KHz Compression mode : Lossy Stream size : 2.67 MiB (6%) Language : English Default : No Forced : No

mrutor.org


Смотрите также